<?xml version="1.0" standalone="no"?><!DOCTYPE svg PUBLIC "-//W3C//DTD SVG 1.1//EN" "http://www.w3.org/Graphics/SVG/1.1/DTD/svg11.dtd" ><svg xmlns="http://www.w3.org/2000/svg"><metadata>Generated by Glyphter</metadata><defs><font id="custom" horiz-adv-x="0"><font-face units-per-em="1024" ascent="1024" descent="0" font-family="custom" font-weight="normal" /><missing-glyph horiz-adv-x="0" /><glyph unicode="&#x0041;" d="M1019.791,161.613C1019.791,161.613,1005.913,214.609,1005.54,216.286C990.079,275.616,986.726,338.299,1002.746,397.443C1022.492,470.372,1025.845,549.82,1008.055,632.063C961.019,849.079,761.514,1023.716,509.85,1023.809C204.816,1023.809,-37.627,761.62,4.845,454.817C31.948,259.317,180.414,95.204,374.797,43.511C447.166,24.231,521.958,20.133,597.029,33.08C659.712,43.884,723.978,39.041,785.357,23.766C785.357,23.766,859.963,5.138,859.963,5.138C956.642,-19.079,1044.473,66.889,1019.791,161.613C1019.791,161.613,1019.791,161.613,1019.791,161.613M810.226,122.96C734.783,141.774,656.172,147.083,579.518,133.857C520.374,123.612,460.485,126.499,401.155,142.333C246.077,183.594,127.603,314.828,106.274,468.882C71.905,717.099,269.735,921.542,509.756,921.542C712.149,921.542,870.581,782.949,907.93,610.454C921.621,547.212,920.224,484.529,903.925,424.174C834.815,168.785,1036.835,66.331,810.226,122.96C810.226,122.96,810.226,122.96,810.226,122.96" class="icon-comments"/><glyph unicode="&#x0042;" d="M93.436,916.506C93.436,916.506,4.645,581.924,4.645,581.924C-15.582,494.157,50.935,410.127,140.853,410.127C140.853,410.127,358.736,410.127,358.736,410.127C386.951,410.127,409.84,388.262,409.84,359.996C409.84,359.996,409.84,114.565,409.84,114.565C409.84,69.094,435.136,24.903,477.534,8.568C548.353,-18.725,618.249,26.592,628.644,93.98C628.644,93.98,716.463,411.151,716.463,411.151C716.463,411.151,716.463,1024.5,716.463,1024.5C716.463,1024.5,229.645,1024.5,229.645,1024.5C164.562,1024.5,108.081,980.053,93.436,916.506C93.436,916.506,93.436,916.506,93.436,916.506M920.878,1024.5C920.878,1024.5,818.671,1024.5,818.671,1024.5C818.671,1024.5,818.671,410.127,818.671,410.127C818.671,410.127,920.878,410.127,920.878,410.127C977.308,410.127,1023.086,457.032,1023.086,513.615C1023.086,513.615,1023.086,923.214,1023.086,923.214C1023.086,979.746,977.359,1024.5,920.878,1024.5C920.878,1024.5,920.878,1024.5,920.878,1024.5" class="icon-dislike"/><glyph unicode="&#x0043;" d="M0,995.924C0,995.924,512,28.5,512,28.5C512,28.5,1024,995.924,1024,995.924C1024,995.924,0,995.924,0,995.924" class="icon-dn_arrow"/><glyph unicode="&#x0044;" d="M464.279,399.36C491.089,361.937,534.563,361.937,561.373,399.36C561.373,399.36,634.17,501.015,634.17,501.015C652.043,525.964,656.884,560.966,650.926,592.71C650.926,592.71,556.718,592.71,556.718,592.71C556.718,592.71,556.718,1024,556.718,1024C556.718,1024,476.474,1024,476.474,1024C476.474,1024,476.474,592.71,476.474,592.71C476.474,592.71,374.725,592.71,374.725,592.71C368.768,560.966,373.608,525.964,391.482,501.015C391.482,501.015,464.279,399.36,464.279,399.36C464.279,399.36,464.279,399.36,464.279,399.36M967.621,341.364C967.621,341.364,910.743,284.486,910.743,284.486C910.743,221.649,859.822,113.85,796.986,113.85C796.986,113.85,228.014,113.85,228.014,113.85C165.178,113.85,114.257,221.649,114.257,284.486C114.257,284.486,57.379,341.364,57.379,341.364C13.16,341.364,2.548,341.364,0.5,341.364C0.5,341.364,0.5,113.85,0.5,113.85C0.5,50.921,51.421,0,114.257,0C114.257,0,910.743,0,910.743,0C973.579,0,1024.5,50.921,1024.5,113.757C1024.5,113.757,1024.5,341.364,1024.5,341.364C1022.731,344.529,1030.458,341.364,967.621,341.364C967.621,341.364,967.621,341.364,967.621,341.364" class="icon-"/><glyph unicode="&#x0045;" d="M902.591,820.283C902.591,820.283,985.046,902.737,985.046,902.737C985.046,902.737,903.816,983.966,903.816,983.966C903.816,983.966,821.362,901.512,821.362,901.512C821.362,901.512,699.453,1023.421,699.453,1023.421C699.453,1023.421,616.999,941.031,616.999,941.031C616.999,941.031,738.908,819.122,738.908,819.122C738.908,819.122,651.167,731.382,651.167,731.382C561.363,804.101,499.861,811.902,408.897,811.257C46.652,808.679,-133.922,369.008,117.051,117.97C367.38,-132.358,808.597,46.733,811.176,408.914C811.821,499.878,764.501,600.899,732.461,650.088C732.461,650.088,820.202,737.828,820.202,737.828C820.202,737.828,942.11,615.92,942.11,615.92C942.11,615.92,1024.5,698.374,1024.5,698.374C1024.5,698.374,902.591,820.283,902.591,820.283C902.591,820.283,902.591,820.283,902.591,820.283M199.312,200.554C19.64,380.225,149.478,694.184,407.479,696.053C484.776,696.633,557.237,666.978,611.519,612.761C665.801,558.479,695.392,486.017,694.812,408.72C693.007,150.978,379.113,20.753,199.312,200.554C199.312,200.554,199.312,200.554,199.312,200.554" class="icon-female"/><glyph unicode="&#x0046;" d="M546.104,823.86C544.046,824.421,541.708,822.55,539.369,819.744C539.369,819.744,539.369,823.486,539.369,823.486C530.389,812.447,521.408,800.474,512.522,787.939C503.541,800.474,494.655,812.447,485.581,823.486C485.581,823.486,485.581,819.744,485.581,819.744C483.242,822.55,480.904,824.421,478.846,823.766C169.4,1144.811,-221.522,687.004,155.462,381.675C274.357,285.418,433.009,103.567,505.038,92.623C506.628,92.342,508.499,91.5,509.996,91.5C510.277,91.5,510.651,91.687,510.931,91.687C511.306,91.687,511.68,91.5,511.96,91.5C512.054,91.5,512.335,91.594,512.522,91.594C512.709,91.594,512.896,91.5,512.989,91.5C513.364,91.5,513.738,91.687,514.018,91.687C514.299,91.687,514.673,91.5,514.954,91.5C516.451,91.5,518.321,92.342,519.912,92.623C591.941,103.567,750.686,285.418,869.581,381.675C1246.472,687.004,855.643,1144.811,546.104,823.86C546.104,823.86,546.104,823.86,546.104,823.86" class="icon-hearh"/><glyph unicode="&#x0047;" d="M1,510.92C1,510.92,1,101.344,1,101.344C1,44.809,46.782,0,103.215,0C103.215,0,205.43,0,205.43,0C205.43,0,205.43,614.415,205.43,614.415C205.43,614.415,103.215,614.415,103.215,614.415C46.73,614.415,1,567.507,1,510.92C1,510.92,1,510.92,1,510.92M883.294,614.415C883.294,614.415,665.396,614.415,665.396,614.415C637.18,614.415,614.289,636.282,614.289,664.55C614.289,664.55,614.289,909.947,614.289,909.947C614.289,955.473,588.991,999.616,546.589,1015.951C475.766,1043.195,405.814,997.926,395.469,930.534C395.469,930.534,307.644,613.34,307.644,613.34C307.644,613.34,307.644,0,307.644,0C307.644,0,794.496,0,794.496,0C859.584,0,916.068,44.45,930.714,108.001C930.714,108.001,1019.512,442.606,1019.512,442.606C1039.689,530.38,973.167,614.415,883.294,614.415C883.294,614.415,883.294,614.415,883.294,614.415" class="icon-like"/><glyph unicode="&#x0048;" d="M161.062,417.099C161.062,417.099,239.287,492.573,239.287,492.573C224.042,515.893,215.102,543.71,215.102,573.656C215.102,636.547,254.273,690.169,309.488,711.807C309.488,711.807,0,711.263,0,711.263C0,711.263,0,606.673,0,606.673C0,606.673,187.365,606.673,187.365,606.673C187.365,606.673,0,410.555,0,410.555C0,410.555,0,312.5,0,312.5C0,312.5,471.93,312.5,471.93,312.5C471.93,312.5,358.284,417.099,358.284,417.099C358.284,417.099,161.062,417.099,161.062,417.099C161.062,417.099,161.062,417.099,161.062,417.099M1024,573.504C1024,648.194,964.75,708.886,890.711,711.548C890.711,711.548,890.711,711.807,890.711,711.807C890.711,711.807,378.711,711.807,378.711,711.807C378.711,711.807,378.711,711.557,378.711,711.557C377.037,711.62,375.389,711.807,373.698,711.807C297.316,711.807,235.404,649.886,235.404,573.513C235.404,497.132,297.325,435.22,373.698,435.22C375.389,435.22,377.028,435.416,378.711,435.469C378.711,435.469,378.711,435.22,378.711,435.22C378.711,435.22,890.711,435.22,890.711,435.22C890.711,435.22,890.711,435.469,890.711,435.469C964.75,438.123,1024,498.823,1024,573.504C1024,573.504,1024,573.504,1024,573.504M296.96,527.54C296.96,527.54,204.8,435.38,204.8,435.38C204.8,435.38,409.6,435.38,409.6,435.38C409.6,435.38,409.6,527.54,409.6,527.54C409.6,527.54,296.96,527.54,296.96,527.54M333.45,607.563C333.45,607.563,354.963,607.563,354.963,607.563C354.963,607.563,354.963,514.183,354.963,514.183C354.963,514.183,375.541,514.183,375.541,514.183C375.541,514.183,375.541,607.563,375.541,607.563C375.541,607.563,397.054,607.563,397.054,607.563C397.054,607.563,397.054,623.128,397.054,623.128C397.054,623.128,333.45,623.128,333.45,623.128C333.45,623.128,333.45,607.563,333.45,607.563C333.45,607.563,333.45,607.563,333.45,607.563M403.972,514.183C403.972,514.183,460.088,514.183,460.088,514.183C460.088,514.183,460.088,529.748,460.088,529.748C460.088,529.748,424.55,529.748,424.55,529.748C424.55,529.748,424.55,561.653,424.55,561.653C424.55,561.653,452.795,561.653,452.795,561.653C452.795,561.653,452.795,577.217,452.795,577.217C452.795,577.217,424.55,577.217,424.55,577.217C424.55,577.217,424.55,607.563,424.55,607.563C424.55,607.563,460.088,607.563,460.088,607.563C460.088,607.563,460.088,623.128,460.088,623.128C460.088,623.128,403.972,623.128,403.972,623.128C403.972,623.128,403.972,514.183,403.972,514.183C403.972,514.183,403.972,514.183,403.972,514.183M469.063,514.183C469.063,514.183,525.178,514.183,525.178,514.183C525.178,514.183,525.178,529.748,525.178,529.748C525.178,529.748,489.641,529.748,489.641,529.748C489.641,529.748,489.641,561.653,489.641,561.653C489.641,561.653,517.886,561.653,517.886,561.653C517.886,561.653,517.886,577.217,517.886,577.217C517.886,577.217,489.641,577.217,489.641,577.217C489.641,577.217,489.641,607.563,489.641,607.563C489.641,607.563,525.178,607.563,525.178,607.563C525.178,607.563,525.178,623.128,525.178,623.128C525.178,623.128,469.063,623.128,469.063,623.128C469.063,623.128,469.063,514.183,469.063,514.183C469.063,514.183,469.063,514.183,469.063,514.183M580.929,557.913C580.929,557.913,559.79,623.119,559.79,623.119C559.79,623.119,533.976,623.119,533.976,623.119C533.976,623.119,533.976,514.183,533.976,514.183C533.976,514.183,552.497,514.183,552.497,514.183C552.497,514.183,552.497,593.094,552.497,593.094C552.497,593.094,578.124,514.183,578.124,514.183C578.124,514.183,599.263,514.183,599.263,514.183C599.263,514.183,599.263,623.119,599.263,623.119C599.263,623.119,580.929,623.119,580.929,623.119C580.929,623.119,580.929,557.913,580.929,557.913C580.929,557.913,580.929,557.913,580.929,557.913M668.093,623.119C668.093,623.119,637.792,623.119,637.792,623.119C637.792,623.119,637.792,514.183,637.792,514.183C637.792,514.183,658.37,514.183,658.37,514.183C658.37,514.183,658.37,555.117,658.37,555.117C658.37,555.117,668.093,555.117,668.093,555.117C678.44,555.117,686.142,557.396,691.191,561.964C696.24,566.532,698.769,573.219,698.769,582.044C698.769,582.044,698.769,596.21,698.769,596.21C698.769,605.026,696.24,611.722,691.191,616.29C686.142,620.84,678.44,623.119,668.093,623.119C668.093,623.119,668.093,623.119,668.093,623.119M678.191,580.948C678.191,577.004,677.318,574.306,675.573,572.854C673.828,571.403,671.334,570.673,668.093,570.673C668.093,570.673,658.37,570.673,658.37,570.673C658.37,570.673,658.37,607.554,658.37,607.554C658.37,607.554,668.093,607.554,668.093,607.554C671.334,607.554,673.828,606.824,675.573,605.373C677.318,603.921,678.191,601.223,678.191,597.279C678.191,597.279,678.191,580.948,678.191,580.948C678.191,580.948,678.191,580.948,678.191,580.948M735.624,624.366C725.526,624.366,717.788,622.006,712.428,617.287C707.068,612.568,704.387,605.791,704.387,596.976C704.387,596.976,704.387,540.327,704.387,540.327C704.387,531.511,707.068,524.735,712.428,520.016C717.788,515.297,725.526,512.937,735.624,512.937C745.721,512.937,753.459,515.297,758.82,520.016C764.18,524.735,766.86,531.502,766.86,540.327C766.86,540.327,766.86,596.976,766.86,596.976C766.86,605.791,764.18,612.568,758.82,617.287C753.45,622.006,745.721,624.366,735.624,624.366C735.624,624.366,735.624,624.366,735.624,624.366M746.282,539.24C746.282,535.296,745.312,532.518,743.379,530.915C741.447,529.303,738.856,528.502,735.615,528.502C732.374,528.502,729.783,529.303,727.85,530.915C725.918,532.526,724.947,535.296,724.947,539.24C724.947,539.24,724.947,598.062,724.947,598.062C724.947,602.007,725.909,604.776,727.85,606.388C729.783,607.991,732.365,608.801,735.615,608.801C738.856,608.801,741.447,608,743.379,606.388C745.312,604.776,746.282,602.007,746.282,598.062C746.282,598.062,746.282,539.24,746.282,539.24C746.282,539.24,746.282,539.24,746.282,539.24M837.57,527.406C837.57,527.406,837.57,544.218,837.57,544.218C837.57,549.926,836.599,554.769,834.667,558.768C832.735,562.757,829.146,565.642,823.91,567.405C832.886,570.931,837.383,578.304,837.383,589.505C837.383,589.505,837.383,598.062,837.383,598.062C837.383,606.468,834.979,612.746,830.179,616.895C825.38,621.045,817.615,623.119,806.894,623.119C806.894,623.119,775.836,623.119,775.836,623.119C775.836,623.119,775.836,514.183,775.836,514.183C775.836,514.183,796.414,514.183,796.414,514.183C796.414,514.183,796.414,558.536,796.414,558.536C796.414,558.536,803.519,558.536,803.519,558.536C808.257,558.536,811.685,557.494,813.804,555.42C815.923,553.345,816.983,549.765,816.983,544.681C816.983,544.681,816.983,527.558,816.983,527.558C816.983,525.376,817.01,523.56,817.072,522.108C817.134,520.657,817.259,519.464,817.446,518.529C817.633,517.594,817.847,516.819,818.105,516.196C818.354,515.573,818.603,514.896,818.853,514.175C818.853,514.175,839.805,514.175,839.805,514.175C838.807,516.249,838.184,518.297,837.935,520.319C837.685,522.349,837.57,524.708,837.57,527.406C837.57,527.406,837.57,527.406,837.57,527.406M816.805,585.614C816.805,581.26,815.709,578.241,813.528,576.585C811.346,574.92,808.319,574.092,804.454,574.092C804.454,574.092,796.414,574.092,796.414,574.092C796.414,574.092,796.414,607.554,796.414,607.554C796.414,607.554,806.324,607.554,806.324,607.554C809.939,607.554,812.593,606.673,814.276,604.91C815.959,603.147,816.805,600.289,816.805,596.353C816.805,596.353,816.805,585.614,816.805,585.614C816.805,585.614,816.805,585.614,816.805,585.614M895.181,623.119C895.181,623.119,895.181,557.913,895.181,557.913C895.181,557.913,874.042,623.119,874.042,623.119C874.042,623.119,848.228,623.119,848.228,623.119C848.228,623.119,848.228,514.183,848.228,514.183C848.228,514.183,866.749,514.183,866.749,514.183C866.749,514.183,866.749,593.094,866.749,593.094C866.749,593.094,892.376,514.183,892.376,514.183C892.376,514.183,913.515,514.183,913.515,514.183C913.515,514.183,913.515,623.119,913.515,623.119C913.515,623.119,895.181,623.119,895.181,623.119C895.181,623.119,895.181,623.119,895.181,623.119M324.546,616.468C324.546,616.468,346.059,616.468,346.059,616.468C346.059,616.468,346.059,523.088,346.059,523.088C346.059,523.088,366.637,523.088,366.637,523.088C366.637,523.088,366.637,616.468,366.637,616.468C366.637,616.468,388.149,616.468,388.149,616.468C388.149,616.468,388.149,632.033,388.149,632.033C388.149,632.033,324.546,632.033,324.546,632.033C324.546,632.033,324.546,616.468,324.546,616.468C324.546,616.468,324.546,616.468,324.546,616.468M395.068,523.088C395.068,523.088,451.183,523.088,451.183,523.088C451.183,523.088,451.183,538.653,451.183,538.653C451.183,538.653,415.646,538.653,415.646,538.653C415.646,538.653,415.646,570.557,415.646,570.557C415.646,570.557,443.891,570.557,443.891,570.557C443.891,570.557,443.891,586.122,443.891,586.122C443.891,586.122,415.646,586.122,415.646,586.122C415.646,586.122,415.646,616.468,415.646,616.468C415.646,616.468,451.183,616.468,451.183,616.468C451.183,616.468,451.183,632.033,451.183,632.033C451.183,632.033,395.068,632.033,395.068,632.033C395.068,632.033,395.068,523.088,395.068,523.088C395.068,523.088,395.068,523.088,395.068,523.088M460.159,523.088C460.159,523.088,516.274,523.088,516.274,523.088C516.274,523.088,516.274,538.653,516.274,538.653C516.274,538.653,480.737,538.653,480.737,538.653C480.737,538.653,480.737,570.557,480.737,570.557C480.737,570.557,508.981,570.557,508.981,570.557C508.981,570.557,508.981,586.122,508.981,586.122C508.981,586.122,480.737,586.122,480.737,586.122C480.737,586.122,480.737,616.468,480.737,616.468C480.737,616.468,516.274,616.468,516.274,616.468C516.274,616.468,516.274,632.033,516.274,632.033C516.274,632.033,460.159,632.033,460.159,632.033C460.159,632.033,460.159,523.088,460.159,523.088C460.159,523.088,460.159,523.088,460.159,523.088M572.024,566.817C572.024,566.817,550.885,632.024,550.885,632.024C550.885,632.024,525.072,632.024,525.072,632.024C525.072,632.024,525.072,523.088,525.072,523.088C525.072,523.088,543.593,523.088,543.593,523.088C543.593,523.088,543.593,601.998,543.593,601.998C543.593,601.998,569.219,523.088,569.219,523.088C569.219,523.088,590.358,523.088,590.358,523.088C590.358,523.088,590.358,632.024,590.358,632.024C590.358,632.024,572.024,632.024,572.024,632.024C572.024,632.024,572.024,566.817,572.024,566.817C572.024,566.817,572.024,566.817,572.024,566.817M659.189,632.024C659.189,632.024,628.887,632.024,628.887,632.024C628.887,632.024,628.887,523.088,628.887,523.088C628.887,523.088,649.465,523.088,649.465,523.088C649.465,523.088,649.465,564.021,649.465,564.021C649.465,564.021,659.189,564.021,659.189,564.021C669.536,564.021,677.238,566.301,682.287,570.869C687.336,575.436,689.864,582.124,689.864,590.948C689.864,590.948,689.864,605.115,689.864,605.115C689.864,613.93,687.336,620.626,682.287,625.194C677.238,629.744,669.536,632.024,659.189,632.024C659.189,632.024,659.189,632.024,659.189,632.024M669.286,589.853C669.286,585.908,668.414,583.21,666.669,581.759C664.923,580.307,662.43,579.577,659.189,579.577C659.189,579.577,649.465,579.577,649.465,579.577C649.465,579.577,649.465,616.459,649.465,616.459C649.465,616.459,659.189,616.459,659.189,616.459C662.43,616.459,664.923,615.729,666.669,614.277C668.414,612.826,669.286,610.128,669.286,606.183C669.286,606.183,669.286,589.853,669.286,589.853C669.286,589.853,669.286,589.853,669.286,589.853M726.719,633.27C716.622,633.27,708.884,630.911,703.524,626.191C698.163,621.472,695.483,614.696,695.483,605.88C695.483,605.88,695.483,549.231,695.483,549.231C695.483,540.407,698.163,533.639,703.524,528.92C708.884,524.201,716.622,521.841,726.719,521.841C736.817,521.841,744.555,524.201,749.915,528.92C755.276,533.639,757.956,540.407,757.956,549.231C757.956,549.231,757.956,605.88,757.956,605.88C757.956,614.696,755.276,621.472,749.915,626.191C744.546,630.911,736.817,633.27,726.719,633.27C726.719,633.27,726.719,633.27,726.719,633.27M737.378,548.145C737.378,544.2,736.407,541.422,734.475,539.819C732.543,538.207,729.952,537.406,726.711,537.406C723.469,537.406,720.878,538.207,718.946,539.819C717.014,541.422,716.043,544.2,716.043,548.145C716.043,548.145,716.043,606.967,716.043,606.967C716.043,610.911,717.005,613.681,718.946,615.292C720.878,616.895,723.469,617.705,726.711,617.705C729.952,617.705,732.534,616.904,734.475,615.292C736.407,613.681,737.378,610.911,737.378,606.967C737.378,606.967,737.378,548.145,737.378,548.145C737.378,548.145,737.378,548.145,737.378,548.145M828.665,536.311C828.665,536.311,828.665,553.122,828.665,553.122C828.665,558.83,827.695,563.674,825.763,567.672C823.83,571.661,820.242,574.546,815.006,576.309C823.982,579.835,828.478,587.208,828.478,598.41C828.478,598.41,828.478,606.967,828.478,606.967C828.478,615.372,826.074,621.65,821.275,625.799C816.475,629.949,808.711,632.024,797.99,632.024C797.99,632.024,766.931,632.024,766.931,632.024C766.931,632.024,766.931,523.088,766.931,523.088C766.931,523.088,787.509,523.088,787.509,523.088C787.509,523.088,787.509,567.44,787.509,567.44C787.509,567.44,794.615,567.44,794.615,567.44C799.352,567.44,802.78,566.399,804.9,564.324C807.019,562.249,808.078,558.67,808.078,553.585C808.078,553.585,808.078,536.462,808.078,536.462C808.078,534.281,808.105,532.464,808.168,531.013C808.23,529.561,808.355,528.368,808.541,527.433C808.728,526.498,808.942,525.724,809.192,525.1C809.441,524.477,809.69,523.8,809.939,523.079C809.939,523.079,830.891,523.079,830.891,523.079C829.894,525.154,829.271,527.202,829.021,529.223C828.781,531.253,828.665,533.613,828.665,536.311C828.665,536.311,828.665,536.311,828.665,536.311M807.9,594.519C807.9,590.164,806.805,587.146,804.624,585.489C802.442,583.824,799.415,582.996,795.55,582.996C795.55,582.996,787.509,582.996,787.509,582.996C787.509,582.996,787.509,616.459,787.509,616.459C787.509,616.459,797.42,616.459,797.42,616.459C801.035,616.459,803.689,615.577,805.372,613.814C807.054,612.051,807.9,609.193,807.9,605.257C807.9,605.257,807.9,594.519,807.9,594.519C807.9,594.519,807.9,594.519,807.9,594.519M886.276,632.024C886.276,632.024,886.276,566.817,886.276,566.817C886.276,566.817,865.138,632.024,865.138,632.024C865.138,632.024,839.324,632.024,839.324,632.024C839.324,632.024,839.324,523.088,839.324,523.088C839.324,523.088,857.845,523.088,857.845,523.088C857.845,523.088,857.845,601.998,857.845,601.998C857.845,601.998,883.472,523.088,883.472,523.088C883.472,523.088,904.611,523.088,904.611,523.088C904.611,523.088,904.611,632.024,904.611,632.024C904.611,632.024,886.276,632.024,886.276,632.024C886.276,632.024,886.276,632.024,886.276,632.024" class="icon-logo"/><glyph unicode="&#x0049;" d="M665.706,716.499C585.28,716.499,511.263,689.712,451.408,644.981C451.408,644.981,175.014,920.927,175.014,920.927C175.014,920.927,409.497,920.927,409.497,920.927C409.497,920.927,409.497,1023.142,409.497,1023.142C265.629,1023.142,149.636,1023.142,0,1023.142C0,873.826,0,759.243,0,614.285C0,614.285,102.406,614.285,102.406,614.285C102.406,614.285,102.406,848.641,102.406,848.641C102.406,848.641,378.929,572.694,378.929,572.694C334.135,512.968,307.347,439.079,307.347,358.718C307.347,161.146,467.814,1,665.706,1C863.597,1,1024,161.146,1024,358.718C1024,556.353,863.597,716.499,665.706,716.499C665.706,716.499,665.706,716.499,665.706,716.499M665.706,103.214C524.593,103.214,409.754,217.797,409.754,358.718C409.754,499.638,524.528,614.221,665.706,614.221C806.819,614.221,921.658,499.574,921.658,358.718C921.658,217.861,806.819,103.214,665.706,103.214C665.706,103.214,665.706,103.214,665.706,103.214" class="icon-male"/><glyph unicode="&#x004a;" d="M68.267,717.133C68.267,717.133,955.733,717.133,955.733,717.133C993.417,717.133,1024,747.717,1024,785.4C1024,823.083,993.417,853.667,955.733,853.667C955.733,853.667,68.267,853.667,68.267,853.667C30.583,853.667,0,823.083,0,785.4C0,747.717,30.583,717.133,68.267,717.133C68.267,717.133,68.267,717.133,68.267,717.133M955.733,580.6C955.733,580.6,68.267,580.6,68.267,580.6C30.583,580.6,0,550.017,0,512.333C0,474.65,30.583,444.067,68.267,444.067C68.267,444.067,955.733,444.067,955.733,444.067C993.417,444.067,1024,474.65,1024,512.333C1024,550.017,993.417,580.6,955.733,580.6C955.733,580.6,955.733,580.6,955.733,580.6M955.733,307.533C955.733,307.533,68.267,307.533,68.267,307.533C30.583,307.533,0,276.95,0,239.267C0,201.583,30.583,171,68.267,171C68.267,171,955.733,171,955.733,171C993.417,171,1024,201.583,1024,239.267C1024,276.95,993.417,307.533,955.733,307.533C955.733,307.533,955.733,307.533,955.733,307.533" class="icon-menu"/><glyph unicode="&#x004b;" d="M384,320.057C384,320.057,703.943,512,703.943,512C703.943,512,384,704.057,384,704.057C384,704.057,384,320.057,384,320.057C384,320.057,384,320.057,384,320.057M512,1024C229.262,1024,0,794.852,0,512C0,229.262,229.262,0,512,0C794.738,0,1024,229.262,1024,512C1024,794.852,794.738,1024,512,1024C512,1024,512,1024,512,1024M512,128C299.918,128,128,299.918,128,512C128,724.082,299.918,896,512,896C724.082,896,896,724.082,896,512C896,299.918,724.082,128,512,128C512,128,512,128,512,128" class="icon-play"/><glyph unicode="&#x004c;" d="M551.77,987.344C382.99,987.344,236.568,897.401,153.055,763.619C153.055,763.619,11.455,813.376,11.455,813.376C-1.697,789.557,-3.962,760.185,9.92,734.978C9.92,734.978,83.424,495.69,83.424,495.69C104.32,457.916,151.228,445.275,188.126,467.487C188.126,467.487,362.897,608.137,362.897,608.137C387.447,622.896,400.16,649.492,400.599,676.745C400.599,676.745,268.351,723.214,268.351,723.214C332.648,810.965,434.939,868.614,551.843,868.614C747.657,868.614,906.354,709.186,906.354,512.422C906.354,315.731,747.657,156.231,551.843,156.231C447.287,156.231,354.202,202.554,289.321,274.961C289.321,274.961,142.899,274.961,142.899,274.961C224.658,133.142,376.926,37.5,551.77,37.5C812.904,37.5,1024.5,250.119,1024.5,512.422C1024.5,774.725,812.904,987.344,551.77,987.344C551.77,987.344,551.77,987.344,551.77,987.344" class="icon-refresh"/><glyph unicode="&#x004d;" d="M0.085,45.5C0.085,45.5,93.94,45.5,93.94,45.5C93.94,45.5,93.94,978.785,93.94,978.785C93.94,978.785,0,978.785,0,978.785C0,978.785,0,45.5,0,45.5C0,45.5,0.085,45.5,0.085,45.5M187.879,978.785C187.879,978.785,187.879,512.143,187.879,512.143C395.276,512.143,547.683,512.143,1024,512.143C1024,677.534,1024,800.41,1024,978.785C614.638,978.785,559.224,978.785,187.879,978.785C187.879,978.785,187.879,978.785,187.879,978.785M919.538,605.488C919.538,605.488,292.426,605.488,292.426,605.488C292.426,605.488,292.426,885.44,292.426,885.44C292.426,885.44,919.538,885.44,919.538,885.44C919.538,885.44,919.538,605.488,919.538,605.488C919.538,605.488,919.538,605.488,919.538,605.488" class="icon-report"/><glyph unicode="&#x004e;" d="M1003.732,162.555C1003.732,162.555,842.501,324.157,842.501,324.157C842.501,324.157,771.783,395.061,771.783,395.061C809.233,457.509,832,529.807,832,607.96C832,837.679,646.144,1024,416.797,1024C187.357,1024,1.5,837.679,1.5,607.96C1.5,378.148,187.357,191.827,416.797,191.827C494.763,191.827,566.876,214.688,629.323,252.138C629.323,252.138,718.721,162.555,718.721,162.555C718.721,162.555,718.721,162.555,718.721,162.555C718.721,162.555,861.272,19.724,861.272,19.724C887.478,-6.575,930.039,-6.575,956.245,19.724C956.245,19.724,1003.732,67.303,1003.732,67.303C1030.03,93.695,1030.03,136.256,1003.732,162.555C1003.732,162.555,1003.732,162.555,1003.732,162.555M129.276,607.96C129.276,767.053,257.982,896.038,416.797,896.038C575.518,896.038,704.224,767.053,704.224,607.96C704.224,448.867,575.518,319.882,416.797,319.882C257.982,319.882,129.276,448.867,129.276,607.96C129.276,607.96,129.276,607.96,129.276,607.96" class="icon-search"/><glyph unicode="&#x004f;" d="M818.802,723.729C756.375,723.729,701.215,695.124,663.758,650.959C663.758,650.959,407.805,799.015,407.805,799.015C420.756,926.293,321.338,1024.5,205.427,1024.5C92.498,1024.5,1,932.815,1,819.7C1,706.585,92.498,614.9,205.427,614.9C274.284,614.9,334.848,649.282,371.932,701.553C371.932,701.553,618.382,558.995,618.382,558.995C612.884,531.042,612.977,504.301,618.847,476.441C618.847,476.441,365.969,330.714,365.969,330.714C328.605,378.7,270.93,410.1,205.427,410.1C92.498,410.1,1,318.415,1,205.3C1,92.185,92.498,0.5,205.427,0.5C326.183,0.5,426.44,106.627,406.78,236.048C406.78,236.048,665.156,385.036,665.156,385.036C702.706,341.895,757.213,314.129,818.802,314.129C931.731,314.129,1023.23,405.814,1023.23,518.929C1023.23,632.044,931.731,723.729,818.802,723.729C818.802,723.729,818.802,723.729,818.802,723.729M205.427,717.3C149.056,717.3,103.214,763.236,103.214,819.7C103.214,876.164,149.056,922.1,205.427,922.1C340.532,922.1,340.532,717.3,205.427,717.3C205.427,717.3,205.427,717.3,205.427,717.3M205.427,102.9C149.056,102.9,103.214,148.836,103.214,205.3C103.214,261.764,149.056,307.7,205.427,307.7C340.532,307.7,340.532,102.9,205.427,102.9C205.427,102.9,205.427,102.9,205.427,102.9M818.802,416.529C762.431,416.529,716.589,462.465,716.589,518.929C716.589,575.394,762.431,621.329,818.802,621.329C875.174,621.329,921.016,575.394,921.016,518.929C921.016,462.465,875.174,416.529,818.802,416.529C818.802,416.529,818.802,416.529,818.802,416.529" class="icon-share"/><glyph unicode="&#x0050;" d="M995.489,540.957C1050.423,596.821,1020.07,694.119,944.187,705.664C944.187,705.664,751.174,734.9,751.174,734.9C721.007,739.462,694.937,759.201,681.437,787.785C681.437,787.785,595.033,970.184,595.033,970.184C578.087,1006.03,545.034,1024,511.98,1024C479.02,1024,445.967,1006.03,428.928,970.184C428.928,970.184,342.617,787.785,342.617,787.785C329.117,759.201,303.139,739.462,272.973,734.9C272.973,734.9,79.867,705.664,79.867,705.664C3.891,694.212,-26.369,596.821,28.564,540.957C28.564,540.957,168.226,398.967,168.226,398.967C190.107,376.807,200.069,344.871,194.855,313.494C194.855,313.494,161.895,113.033,161.895,113.033C151.653,50.651,199.231,0,253.141,0C267.386,0,282.097,3.538,296.249,11.266C296.249,11.266,468.965,105.957,468.965,105.957C482.465,113.312,497.269,117.037,512.073,117.037C526.878,117.037,541.682,113.312,555.182,105.957C555.182,105.957,727.897,11.266,727.897,11.266C741.957,3.445,756.668,0,770.913,0C824.823,0,872.401,50.651,862.159,113.126C862.159,113.126,829.199,313.494,829.199,313.494C824.078,344.778,834.04,376.807,855.828,398.967C855.828,398.967,995.489,540.957,995.489,540.957C995.489,540.957,995.489,540.957,995.489,540.957" class="icon-star"/><glyph unicode="&#x0051;" d="M601.41,326.124C777.023,504.27,650.538,807.176,405.379,807.176C160.813,807.176,32.82,504.27,208.487,326.124C252.606,281.359,325.06,255.125,364.708,246.775C364.708,246.775,364.708,161.069,364.708,161.069C364.708,161.069,245.657,161.069,245.657,161.069C245.657,161.069,245.657,80.534,245.657,80.534C245.657,80.534,364.708,80.534,364.708,80.534C364.708,80.534,364.708,0,364.708,0C364.708,0,444.111,0,444.111,0C444.111,0,444.111,80.534,444.111,80.534C444.111,80.534,563.162,80.534,563.162,80.534C563.162,80.534,563.162,161.069,563.162,161.069C563.162,161.069,444.111,161.069,444.111,161.069C444.111,161.069,444.111,246.775,444.111,246.775C523.515,255.125,557.345,281.359,601.41,326.124C601.41,326.124,601.41,326.124,601.41,326.124M405.541,324.077C352.534,324.077,302.705,345.032,265.212,383.01C140.235,509.764,229.927,726.642,405.541,726.642C580.993,726.642,670.955,509.872,545.87,383.01C508.377,345.032,458.548,324.077,405.541,324.077C405.541,324.077,405.541,324.077,405.541,324.077M596.184,1024C596.184,1024,596.184,948.529,596.184,948.529C596.184,948.529,768.943,948.529,768.943,948.529C768.943,948.529,565.533,744.742,565.533,744.742C521.521,777.764,467.06,797.48,407.804,797.48C393.528,797.48,379.845,795.487,366.163,793.278C459.518,756.378,592.09,652.302,670.793,541.332C669.069,597.464,650.161,649.232,618.755,691.25C618.755,691.25,822.166,894.983,822.166,894.983C822.166,894.983,822.166,722.117,822.166,722.117C822.166,722.117,897.475,722.117,897.475,722.117C897.475,722.117,897.475,1023.946,897.475,1023.946C897.475,1023.946,596.184,1023.946,596.184,1023.946C596.184,1023.946,596.184,1024,596.184,1024" class="icon-trans"/><glyph unicode="&#x0052;" d="M512.429,1024C512.429,1024,4,0,4,0C4,0,1020.857,0,1020.857,0C1020.857,0,512.429,1024,512.429,1024" class="icon-up_arrow"/><glyph unicode="&#x0053;" d="M468.2,802.815C468.2,802.815,468.2,371.975,468.2,371.975C468.2,371.975,548.454,371.975,548.454,371.975C548.454,371.975,548.454,802.815,548.454,802.815C548.454,802.815,650.096,802.815,650.096,802.815C656.048,834.525,651.212,869.491,633.357,894.413C633.357,894.413,560.636,995.962,560.636,995.962C533.854,1033.346,490.426,1033.346,463.644,995.962C463.644,995.962,390.83,894.413,390.83,894.413C372.975,869.491,368.139,834.525,374.091,802.815C374.091,802.815,468.2,802.815,468.2,802.815C468.2,802.815,468.2,802.815,468.2,802.815M967.111,341.008C967.111,341.008,910.199,284.189,910.199,284.189C910.199,221.418,859.332,113.731,796.561,113.731C796.561,113.731,228.277,113.731,228.277,113.731C165.506,113.731,114.638,221.418,114.638,284.189C114.638,284.189,57.819,341.008,57.819,341.008C13.647,341.008,3.046,341.008,1,341.008C1,341.008,1,113.731,1,113.731C1,50.868,51.868,0,114.638,0C114.638,0,910.199,0,910.199,0C972.97,0,1023.931,50.868,1023.931,113.638C1023.931,113.638,1023.931,341.008,1023.931,341.008C1022.164,344.263,1029.882,341.008,967.111,341.008C967.111,341.008,967.111,341.008,967.111,341.008" class="icon-"/><glyph unicode="&#x0054;" d="M512,455.121C637.673,455.121,739.514,582.47,739.514,739.607C739.514,896.652,637.673,1024,512,1024C386.327,1024,284.486,896.652,284.486,739.514C284.486,582.47,386.327,455.121,512,455.121C512,455.121,512,455.121,512,455.121M853.178,402.525C771.817,435.759,617.193,341.364,512,341.364C407.831,341.364,254.138,436.131,173.335,403.549C34.63,347.508,0,308.317,0,199.121C0,0,0,0,512,0C1024,0,1024,0,1024,199.121C1024,307.665,990.487,346.391,853.178,402.525C853.178,402.525,853.178,402.525,853.178,402.525" class="icon-"/></font>
</defs>
</svg>
